Flemish Radio Choir, Brussels Philharmonic Orchestra & Hervé Niquet - Gounod: Cantates et musique sacrée (2018) [24/88]

Posted By: SERTiL
Flemish Radio Choir, Brussels Philharmonic Orchestra & Hervé Niquet - Gounod: Cantates et musique sacrée (2018) [24/88]

Flemish Radio Choir, Brussels Philharmonic Orchestra & Hervé Niquet - Gounod: Cantates et musique sacrée (2018)
FLAC (tracks) 24-bit/88.2 kHz | Time - 128:09 minutes | 2.05 GB
Studio Master, Official Digital Download | Artwork: Digital Booklet

An icon of French Romanticism thanks to the enduring popularity of his operas Faust and Roméo et Juliette, Charles Gounod competed three times for the prestigious Prix de Rome between 1837 and 1839. Thus he composed three unpublished cantatas for soloists and orchestra, including Marie Stuart et Rizzio and La Vendetta, which he never had the opportunity to hear in performance. Revealed for the first time, these three cantatas, fine examples of French Romanticism, show a young composer with a remarkable flair for opera. In the end Fernand won him the coveted prize, carrying with it the privilege of a three-year stay (from 1840) at the Villa Medici in Rome. While there he produced several sacred compositions, which have also remained unknown until now. His splendid Messe vocale for unaccompanied choir, written in a neo-Palestrinian style, deserves a place on the programme of every vocal ensemble.

Tracklist:

Charles Gounod (1818 - 1893)

01. Marie Stuart et Rizzio: Prélude
02. Marie Stuart et Rizzio: Récit. Il ne vient pas !… L’heure s’avance…
03. Marie Stuart et Rizzio: Récit et duo. C’est moi… c’est Rizzio…
04. Marie Stuart et Rizzio: Récit. En vain ton amour me rassure !
05. Marie Stuart et Rizzio: Cantabile. Adieu, douce et belle patrie
06. Marie Stuart et Rizzio: Récit. Mais le temps fuit…
07. Marie Stuart et Rizzio: Air. Il n’est plus !… Vengeance !
08. Fernand: Prélude
09. Fernand: Récit. La nuit a déployé ses voiles
10. Fernand: Récit. Je n’entends plus de bruit
11. Fernand: Duo. Non, Zelmire, un Abencérage
12. Fernand: Marche et récit. Veillez, soldats !
13. Fernand: Trio. Sauve Alamir
14. Fernand: Trio (Suite). Zelmire, en de plus doux moments
15. Fernand: Trio (Suite). La route est ouverte
16. Fernand: Trio (Suite). Dieu qui lit dans les cœurs
17. La Vendetta: Prélude
18. La Vendetta: Récit. Le soleil descend sous les eaux
19. La Vendetta: Air. S’il savait que sa mère a pleuré son absence !
20. La Vendetta: Récit. Un bruit, au loin, dans les arbres résonne
21. La Vendetta: Hymne en duo. À genoux !
22. La Vendetta: Récit. Sais-tu bien ce que c’est
23. La Vendetta: Duo. Là-haut, je le vois !
24. Messe vocale: Kyrie
25. Messe vocale: Gloria
26. Messe vocale: Credo
27. Messe vocale: Sanctus
28. Messe vocale: Benedictus
29. Messe vocale: Agnus Dei
30. Christus factus est
31. Hymne sacré
32. Messe de Saint-Louis-des-Français: Kyrie
33. Messe de Saint-Louis-des-Français: Gloria
34. Messe de Saint-Louis-des-Français: Credo
35. Messe de Saint-Louis-des-Français: Offertoire
36. Messe de Saint-Louis-des-Français: Sanctus
37. Messe de Saint-Louis-des-Français: Agnus Dei

Personnel:
Flemish Radio Choir
Brussels Philharmonic
Hervé Niquet, conductor

foobar2000 1.3.7 / Dynamic Range Meter 1.1.1
log date: 2018-01-14 16:41:18

––––––––––––––––––––––––––––––––––––––––
Analyzed: Brussels Philharmonic / Hervé Niquet / Gounod: Cantates et musique sacrée (1-3)
Caroline Meng / Artavazd Sargsyan / Flemish Radio Choir / Brussels Philharmonic / Hervé Niquet / Gounod: Cantates et musique sacrée (4-9)
Chantal Santon-Jeffery / Brussels Philharmonic / Hervé Niquet / Gounod: Cantates et musique sacrée (10-11)
Chantal Santon-Jeffery / Yu Shao / Brussels Philharmonic / Hervé Niquet / Gounod: Cantates et musique sacrée (12-15)
François Saint-Yves / Flemish Radio Choir / Hervé Niquet / Gounod: Cantates et musique sacrée (16-21)
Gabrielle Philiponet / Brussels Philharmonic / Hervé Niquet / Gounod: Cantates et musique sacrée (22-24)
Gabrielle Philiponet / Sébastien Droy / Brussels Philharmonic / Hervé Niquet / Gounod: Cantates et musique sacrée (25-27)
Judith Van Wanroij / Brussels Philharmonic / Hervé Niquet / Gounod: Cantates et musique sacrée (28)
Judith Van Wanroij / Caroline Meng / Artavazd Sargsyan / Alexandre Duhammel / Flemish Radio Choir / Brussels Philharmonic / Hervé Niquet / Gounod: Cantates et musique sacrée (29)
Judith Van Wanroij / Yu Shao / Brussels Philharmonic / Hervé Niquet / Gounod: Cantates et musique sacrée (30-31)
Judith Van Wanroij / Yu Shao / Nicolas Courjal / Brussels Philharmonic / Hervé Niquet / Gounod: Cantates et musique sacrée (32-36)
Nicolas Courjal / Brussels Philharmonic / Hervé Niquet / Gounod: Cantates et musique sacrée (37)
––––––––––––––––––––––––––––––––––––––––

DR Peak RMS Duration Track
––––––––––––––––––––––––––––––––––––––––
DR15 -4.86 dB -25.88 dB 0:59 01-Marie Stuart et Rizzio: Prélude
DR13 -2.38 dB -24.49 dB 3:05 08-Fernand: Prélude
DR10 -7.81 dB -26.04 dB 1:30 17-La Vendetta: Prélude
DR15 -0.10 dB -19.25 dB 5:47 09-Messe de Saint-Louis-des-Français: Kyrie
DR13 -0.10 dB -19.04 dB 4:35 10-Messe de Saint-Louis-des-Français: Gloria
DR12 -0.10 dB -17.09 dB 5:53 11-Messe de Saint-Louis-des-Français: Credo
DR14 -2.32 dB -23.22 dB 2:59 12-Messe de Saint-Louis-des-Français: Offertoire
DR16 -0.10 dB -22.65 dB 3:28 13-Messe de Saint-Louis-des-Français: Sanctus
DR14 -2.35 dB -21.60 dB 3:40 14-Messe de Saint-Louis-des-Français: Agnus Dei
DR14 -3.39 dB -23.69 dB 1:04 18-La Vendetta: Récit. Le soleil descend sous les eaux
DR12 -3.71 dB -21.36 dB 2:51 19-La Vendetta: Air. S’il savait que sa mère a pleuré son absence !
DR13 -7.74 dB -26.14 dB 4:32 20-La Vendetta: Récit. Un bruit, au loin, dans les arbres résonne
DR13 0.00 dB -17.92 dB 4:02 21-La Vendetta: Hymne en duo. À genoux !
DR14 0.00 dB -20.92 dB 0:57 22-La Vendetta: Récit. Sais-tu bien ce que c’est
DR11 0.00 dB -14.80 dB 3:38 23-La Vendetta: Duo. Là-haut, je le vois !
DR13 -0.30 dB -20.84 dB 7:13 01-Messe vocale: Kyrie
DR12 0.00 dB -16.93 dB 4:22 02-Messe vocale: Gloria
DR15 0.00 dB -19.73 dB 6:03 03-Messe vocale: Credo
DR13 -4.14 dB -21.82 dB 2:32 04-Messe vocale: Sanctus
DR14 0.00 dB -20.06 dB 2:52 05-Messe vocale: Benedictus
DR12 -3.02 dB -20.25 dB 3:36 06-Messe vocale: Agnus Dei
DR12 0.00 dB -17.84 dB 1:29 02-Marie Stuart et Rizzio: Récit. Il ne vient pas !… L’heure s’avance…
DR13 -4.25 dB -22.90 dB 1:19 04-Marie Stuart et Rizzio: Récit. En vain ton amour me rassure !
DR8 0.00 dB -12.65 dB 2:24 07-Marie Stuart et Rizzio: Air. Il n’est plus !… Vengeance !
DR13 0.00 dB -17.39 dB 4:35 03-Marie Stuart et Rizzio: Récit et duo. C’est moi… c’est Rizzio…
DR14 -2.16 dB -21.10 dB 3:48 05-Marie Stuart et Rizzio: Cantabile. Adieu, douce et belle patrie
DR15 0.00 dB -20.56 dB 4:13 06-Marie Stuart et Rizzio: Récit. Mais le temps fuit…
DR12 -2.14 dB -21.03 dB 4:03 07-Christus factus est
DR13 -0.01 dB -18.27 dB 11:47 08-Hymne sacré
DR13 -0.24 dB -19.96 dB 1:30 10-Fernand: Récit. Je n’entends plus de bruit
DR11 0.00 dB -15.33 dB 4:12 11-Fernand: Duo. Non, Zelmire, un Abencérage
DR13 0.00 dB -18.23 dB 1:52 12-Fernand: Marche et récit. Veillez, soldats !
DR11 0.00 dB -15.36 dB 2:50 13-Fernand: Trio. Sauve Alamir
DR11 0.00 dB -16.57 dB 2:11 14-Fernand: Trio (Suite). Zelmire, en de plus doux moments
DR13 0.00 dB -18.04 dB 2:15 15-Fernand: Trio (Suite). La route est ouverte
DR10 0.00 dB -14.71 dB 2:20 16-Fernand: Trio (Suite). Dieu qui lit dans les cœurs
DR12 0.00 dB -18.51 dB 2:04 09-Fernand: Récit. La nuit a déployé ses voiles
––––––––––––––––––––––––––––––––––––––––

Number of tracks: 37
Official DR value: DR13

Samplerate: 88200 Hz
Channels: 2
Bits per sample: 24
Bitrate: 2216 kbps
Codec: FLAC
================================================================================


Thanks to the Original customer.