François Salque & Claire-Marie Le Guay - Schubert: Wanderer (2018) [Official Digital Download 24/96]

Posted By: SERTiL
François Salque & Claire-Marie Le Guay - Schubert: Wanderer (2018) [Official Digital Download 24/96]

François Salque & Claire-Marie Le Guay - Schubert: Wanderer (2018)
FLAC (tracks) 24-bit/96 kHz | Time - 63:56 minutes | 1.06 GB
Studio Master, Official Digital Download | Artwork: Digital Booklet

Is it the lure of the unknown or the need to run away from something that prompts the Romantic ‘Wanderer’ to roam the world without any precise aim? If ever he encounters happiness where he is, his solitary itinerary nevertheless retains an initiatory quality. The lieder of Franz Schubert, here transcribed for cello and piano, explore all the nuances of this inner quest, in which a journey both painful and comforting finally leads to tranquillity and a sort of transcendence.

Tracklist:

Franz Schubert (1797-1828)

01. Arpeggione Sonata, D. 821: I. Allegro moderato
02. Arpeggione Sonata, D. 821: II. Adagio
03. Arpeggione Sonata, D. 821: III. Allegretto
04. Ständchen, D. 957
05. Die schöne Müllerin, D. 795: XIX. Der Müller und der Bach
06. Litanei, D. 343
07. Klaglied, D. 23
08. Du bist die Ruh, D. 776
09. Lob der Tränen, D. 711
10. Die Schöne Müllerin, D. 795: VIII. Morgengruß
11. Wandrers Nachtlied, D. 224
12. Der Wanderer, D. 489
13. Nacht und Träume, D. 827
14. Ellens dritter Gesang, D. 839

Personnel:
Francois Salque, cello
Claire-Marie Le Guay, piano

foobar2000 1.3.7 / Dynamic Range Meter 1.1.1
log date: 2018-01-14 16:32:23

––––––––––––––––––––––––––––––––––––––––
Analyzed: François Salque, Claire-Marie Le Guay / Schubert: Wanderer
––––––––––––––––––––––––––––––––––––––––

DR Peak RMS Duration Track
––––––––––––––––––––––––––––––––––––––––
DR15 -0.10 dB -19.25 dB 12:00 01-Arpeggione Sonata, D. 821: I. Allegro moderato
DR13 -1.14 dB -22.04 dB 4:20 02-Arpeggione Sonata, D. 821: II. Adagio
DR15 -0.10 dB -18.93 dB 8:33 03-Arpeggione Sonata, D. 821: III. Allegretto
DR13 -1.15 dB -20.33 dB 4:08 04-Ständchen, D. 957
DR13 -2.35 dB -22.33 dB 3:13 05-Die schöne Müllerin, D. 795: XIX. Der Müller und der Bach
DR15 -4.81 dB -24.85 dB 3:26 06-Litanei, D. 343
DR12 -4.86 dB -22.35 dB 3:21 07-Klaglied, D. 23
DR14 -5.11 dB -23.70 dB 4:13 08-Du bist die Ruh, D. 776
DR14 -4.67 dB -23.75 dB 3:13 09-Lob der Tränen, D. 711
DR13 -4.27 dB -23.22 dB 2:40 10-Die Schöne Müllerin, D. 795: VIII. Morgengruß
DR12 -3.81 dB -23.17 dB 1:31 11-Wandrers Nachtlied, D. 224
DR13 -2.25 dB -21.74 dB 4:38 12-Der Wanderer, D. 489
DR13 -5.70 dB -23.83 dB 3:55 13-Nacht und Träume, D. 827
DR12 -7.66 dB -25.38 dB 4:48 14-Ellens dritter Gesang, D. 839
––––––––––––––––––––––––––––––––––––––––

Number of tracks: 14
Official DR value: DR13

Samplerate: 96000 Hz
Channels: 2
Bits per sample: 24
Bitrate: 2292 kbps
Codec: FLAC
================================================================================


Thanks to the Original customer.